<?xml version="1.0" standalone="no"?>
<!DOCTYPE svg PUBLIC "-//W3C//DTD SVG 1.1//EN" "http://www.w3.org/Graphics/SVG/1.1/DTD/svg11.dtd" >
<svg xmlns="http://www.w3.org/2000/svg">
<metadata>Generated by IcoMoon</metadata>
<defs>
<font id="bp-icon" horiz-adv-x="1024">
<font-face units-per-em="1024" ascent="960" descent="-64" />
<missing-glyph horiz-adv-x="1024" />
<glyph unicode="&#x20;" horiz-adv-x="512" d="" />
<glyph unicode="&#xe900;" glyph-name="card" d="M448 640.017v64h-384c-35.264 0-64-28.736-64-64v-128.001h461.505c-8.897 39.105-13.505 81.217-13.505 128.001zM1021.374 384.016c-43.647-67.265-110.207-124.482-205.566-179.266-14.655-8.385-31.171-12.734-47.809-12.734s-33.153 4.35-47.616 12.607c-95.359 54.911-161.919 112.189-205.631 179.393h-514.753v-320c0-35.328 28.736-64 64-64h895.999c35.328 0 64 28.672 64 64v320h-2.626zM288 192.016h-128c-17.664 0-32 14.336-32 31.998 0 17.666 14.336 32.002 32 32.002h128c17.664 0 32-14.336 32-32.002 0-17.662-14.336-31.998-32-31.998zM1004.61 797.393l-224.002 96c-8.126 3.456-17.15 3.456-25.281 0l-223.998-96c-11.715-4.992-19.329-16.576-19.329-29.376v-128c0-176.063 65.090-278.975 240.062-379.777 4.932-2.814 10.433-4.223 15.938-4.223s11.006 1.409 15.938 4.223c174.973 100.545 240.062 203.457 240.062 379.777v128c0 12.8-7.614 24.384-19.39 29.376zM889.025 651.985l-128-159.998c-6.144-7.553-15.36-11.969-25.022-11.969-0.451 0-0.963 0-1.348 0-10.174 0.446-19.583 5.693-25.281 14.205l-64 96.002c-9.789 14.72-5.82 34.56 8.897 44.352 14.594 9.728 34.497 5.888 44.356-8.896l39.743-59.584 100.606 125.824c11.071 13.76 31.232 15.936 44.995 4.992 13.824-10.944 15.999-31.104 5.054-44.928z" />
<glyph unicode="&#xe901;" glyph-name="caret-down" d="M1004.99 717.008c-12.658 12.669-27.662 18.998-45 18.998h-895.985c-17.344 0-32.339-6.329-45.007-18.998-12.669-12.683-18.998-27.677-18.998-45.011 0-17.33 6.329-32.325 18.998-44.997l447.995-447.994c12.682-12.669 27.677-19.012 45.007-19.012s32.339 6.343 44.997 19.012l447.994 447.997c12.655 12.669 19.009 27.663 19.009 44.997 0 17.33-6.354 32.325-19.009 45.007z" />
<glyph unicode="&#xe902;" glyph-name="caret-left" d="M781.009-44.99c12.668 12.658 18.997 27.662 18.997 45v895.985c0 17.344-6.329 32.339-18.997 45.007-12.683 12.669-27.677 18.998-45.011 18.998-17.33 0-32.325-6.329-44.997-18.998l-447.994-447.995c-12.669-12.682-19.012-27.677-19.012-45.007s6.343-32.339 19.012-44.997l447.997-447.994c12.669-12.655 27.663-19.009 44.997-19.009 17.331 0 32.325 6.354 45.008 19.009z" />
<glyph unicode="&#xe903;" glyph-name="contribute" d="M342.715 200.075c2.081-5.803 5.902-10.822 10.94-14.378 5.040-3.553 11.050-5.47 17.216-5.485h284.116c6.166 0.012 12.178 1.928 17.216 5.48 5.040 3.555 8.859 8.577 10.94 14.383 8.659 24.193 23.385 45.76 42.761 62.636 19.379 16.878 42.764 28.501 67.916 33.758v-116.231h199.956c4.786-0.002 9.506 1.137 13.763 3.328s7.927 5.367 10.707 9.266c2.769 3.888 4.558 8.388 5.22 13.116s0.169 9.544-1.431 14.042c-10.282 28.742-26.704 54.896-48.12 76.645-21.419 21.749-47.319 38.568-75.9 49.288s-59.155 15.082-89.592 12.783c-30.439-2.299-60.010-11.204-86.656-26.092v88.281h47.864c7.912 0 15.499 3.143 21.093 8.739 5.596 5.593 8.739 13.182 8.739 21.093s-3.143 15.501-8.739 21.093c-5.596 5.596-13.182 8.739-21.093 8.739h-47.864v63.785c49.823 7.090 95.43 31.878 128.482 69.829 33.050 37.951 51.333 86.533 51.51 136.86v59.664c0 7.956-3.161 15.586-8.787 21.212s-13.256 8.786-21.211 8.786c-7.958 0-15.588-3.161-21.214-8.786s-8.785-13.256-8.785-21.212v-59.664c-0.125-35.476-12.849-69.755-35.901-96.72-23.050-26.966-54.932-44.868-89.955-50.508-4.669 12.127-11.903 23.105-21.206 32.179s-20.459 16.031-32.699 20.395v34.965c0 36.469-13.451 71.658-37.78 98.827 28.619 10.543 53.33 29.592 70.806 54.588 17.48 24.996 26.891 54.742 26.971 85.243 0 7.956-3.161 15.586-8.787 21.212s-13.256 8.786-21.211 8.786c-7.958 0-15.588-3.161-21.214-8.786s-8.785-13.256-8.785-21.212c-0.069-23.806-9.58-46.611-26.451-63.408-16.868-16.797-39.715-26.212-63.519-26.179h-119.918c-23.807-0.034-46.652 9.381-63.522 26.179-16.868 16.797-26.381 39.602-26.448 63.408 0 7.956-3.161 15.586-8.787 21.212s-13.256 8.786-21.211 8.786c-7.958 0-15.588-3.161-21.214-8.786s-8.785-13.256-8.785-21.212c0.084-30.499 9.498-60.242 26.976-85.237 17.48-24.995 42.185-44.046 70.801-54.594-24.368-27.151-37.848-62.345-37.857-98.827v-34.965c-12.281-4.336-23.477-11.28-32.82-20.356-9.34-9.076-16.604-20.067-21.291-32.218-35.028 5.637-66.911 23.536-89.964 50.503s-35.773 61.248-35.893 96.725v59.664c0 7.956-3.161 15.586-8.786 21.212s-13.256 8.786-21.212 8.786c-7.956 0-15.586-3.161-21.212-8.786s-8.786-13.256-8.786-21.212v-59.664c0.18-50.325 18.467-98.903 51.516-136.854s78.654-62.739 128.477-69.834v-63.785h-52.191c-7.912 0-15.5-3.143-21.094-8.739-5.595-5.593-8.738-13.182-8.738-21.093s3.143-15.501 8.738-21.093c5.595-5.596 13.183-8.739 21.094-8.739h52.217v-87.257c-30.661 16.781-65.052 25.583-100.005 25.596-43.602 0.058-86.174-13.248-121.978-38.133-35.804-24.882-63.118-60.146-78.261-101.033-1.599-4.505-2.093-9.327-1.439-14.063s2.435-9.245 5.195-13.149c2.76-3.904 6.417-7.088 10.662-9.281 4.246-2.196 8.957-3.34 13.738-3.335h201.953v116.206c25.141-5.259 48.516-16.883 67.881-33.756 19.368-16.87 34.086-38.43 42.745-62.613h0.102zM853.971 296.547c35.965-7.288 68.050-27.424 90.252-56.644h-90.252v56.644zM422.011 691.341c0.397 23.602 10.052 46.103 26.884 62.654s39.492 25.825 63.1 25.825c23.605 0 46.264-9.275 63.096-25.825s26.487-39.052 26.886-62.654v-29.82h-179.991v29.82h0.026zM362.015 571.986c0.046 7.917 3.225 15.49 8.843 21.068 5.616 5.58 13.212 8.708 21.129 8.7h239.963c7.919 0.028 15.529-3.085 21.16-8.654s8.828-13.144 8.889-21.063v-288.801c0-0.307 0-0.588 0-0.896-10.694-13-19.77-27.253-27.029-42.439h-244.032c-7.712 16.095-17.451 31.14-28.974 44.767v287.367l0.051-0.051zM172.014 239.877h-91.711c22.903 29.136 55.402 49.199 91.711 56.618v-56.618zM993.953 119.166h-139.985v0.614h-59.997v-119.559c-25.363 5.562-48.868 17.559-68.251 34.833-19.384 17.278-33.994 39.255-42.425 63.814-2.012 5.885-5.8 10.999-10.845 14.641-5.042 3.64-11.091 5.626-17.311 5.683h-284.116c-6.22-0.053-12.268-2.037-17.314-5.68-5.042-3.64-8.831-8.756-10.843-14.644-8.428-24.559-23.039-46.536-42.423-63.814-19.384-17.275-42.889-29.272-68.253-34.833v119.303h-60.151v-0.333h-141.982c-4.813 0.002-9.555-1.162-13.82-3.389-4.265-2.229-7.928-5.457-10.676-9.409-2.772-4.013-4.558-8.626-5.212-13.461s-0.157-9.754 1.449-14.362c14.612-41.499 41.691-77.469 77.528-102.991 35.839-25.52 78.687-39.344 122.684-39.579 39.846 0.299 78.781 11.946 112.251 33.575 33.467 21.626 60.081 52.342 76.724 88.544h244.007c17.328-38.103 45.735-70.1 81.516-91.819 35.78-21.721 77.274-32.156 119.075-29.945 41.798 2.209 81.961 16.962 115.252 42.336s58.162 60.187 71.374 99.904c1.605 4.605 2.097 9.522 1.439 14.352-0.658 4.832-2.449 9.438-5.227 13.446-2.747 3.945-6.406 7.165-10.666 9.389-4.261 2.222-8.997 3.384-13.804 3.384zM172.039 0.145c-36.514 7.736-69.050 28.292-91.711 57.95h91.711v-57.95zM853.968 0.145v57.95h90.252c-21.956-29.738-54.077-50.371-90.252-57.975v0.026z" />
<glyph unicode="&#xe904;" glyph-name="crown" d="M941.565 705.709l-155.443-89.822c-10.164-5.835-21.93-8.262-33.572-6.921s-22.547 6.378-31.119 14.368l-172.197 158.701c-10.108 9.425-23.411 14.667-37.231 14.667s-27.128-5.241-37.231-14.667l-172.198-158.701c-8.57-7.99-19.478-13.027-31.12-14.368s-23.408 1.088-33.571 6.921l-155.443 89.822c-8.935 5.122-19.127 7.635-29.418 7.255s-20.271-3.641-28.803-9.409c-8.532-5.769-15.274-13.815-19.462-23.224s-5.651-19.804-4.227-30.005c25.131-179.178 50.263-311.35 74.928-503.094 1.744-13.225 8.223-25.366 18.234-34.178 10.011-8.817 22.879-13.701 36.217-13.757h764.183c13.337 0.056 26.204 4.94 36.215 13.757 10.011 8.812 16.49 20.954 18.237 34.178 24.666 191.744 49.797 323.916 74.928 503.094 1.422 10.201-0.041 20.596-4.23 30.005-4.185 9.409-10.927 17.455-19.46 23.224-8.53 5.769-18.508 9.028-28.803 9.409-10.29 0.381-20.485-2.132-29.417-7.255zM651.622 238.916h-279.238c-12.342 0-24.182 4.903-32.909 13.63-8.727 8.731-13.631 20.567-13.631 32.909s4.904 24.182 13.631 32.909c8.727 8.727 20.567 13.63 32.909 13.63h279.238c12.342 0 24.178-4.903 32.909-13.63 8.727-8.727 13.63-20.567 13.63-32.909s-4.903-24.178-13.63-32.909c-8.731-8.727-20.567-13.63-32.909-13.63z" />
<glyph unicode="&#xe905;" glyph-name="doc" d="M527.839-63.997c-5.079-0.003-10.089 1.183-14.625 3.466-4.539 2.281-8.479 5.594-11.505 9.674-3.028 4.078-5.056 8.812-5.924 13.814-0.868 5.005-0.55 10.145 0.924 15.004l48.64 159.949c1.556 5.123 4.355 9.782 8.141 13.568l223.103 222.591c21.481 20.652 50.207 32.054 80.003 31.754 29.796-0.297 58.286-12.27 79.35-33.349 21.064-21.076 33.019-49.574 33.298-79.37s-11.141-58.514-31.805-79.982l-222.719-222.181c-3.965-3.958-8.886-6.825-14.285-8.32l-164.019-45.414c-2.79-0.788-5.676-1.193-8.576-1.203zM605.151 111.209l-28.954-95.59 98.816 27.366 156.902 156.621-68.966 68.966-157.798-157.363zM857.054 342.274c-6.405 0.020-12.751-1.229-18.67-3.679-5.919-2.447-11.292-6.042-15.813-10.58l-13.594-13.568 68.966-68.966 13.619 13.594c6.866 6.799 11.553 15.493 13.458 24.968 1.907 9.475 0.947 19.302-2.755 28.229-3.704 8.927-9.981 16.548-18.033 21.891-8.054 5.345-17.516 8.169-27.18 8.113zM209.171-63.997c-40.94 0.049-80.19 16.333-109.138 45.281s-45.233 68.198-45.281 109.138v715.211c0.061 40.931 16.351 80.167 45.299 109.105s68.189 45.215 109.121 45.263h499.557c40.94-0.034 80.195-16.305 109.153-45.244s45.256-68.184 45.317-109.124v-249.906c0-8.622-3.425-16.893-9.523-22.989-6.095-6.098-14.367-9.523-22.989-9.523s-16.893 3.425-22.989 9.523c-6.098 6.095-9.523 14.367-9.523 22.989v249.906c-0.067 23.688-9.513 46.385-26.271 63.128s-39.462 26.169-63.15 26.216h-499.583c-23.684-0.054-46.383-9.483-63.134-26.225s-26.193-39.436-26.261-63.119v-715.211c0.054-23.693 9.49-46.4 26.243-63.153s39.46-26.189 63.152-26.243h135.885c4.27 0 8.497-0.842 12.442-2.476s7.529-4.027 10.547-7.048c3.021-3.018 5.414-6.602 7.048-10.547s2.476-8.172 2.476-12.442c0-4.27-0.842-8.497-2.476-12.442s-4.027-7.529-7.048-10.547c-3.018-3.021-6.602-5.414-10.547-7.048-3.945-1.636-8.172-2.476-12.442-2.476h-135.885zM249.594 326.095c-8.623 0-16.892 3.425-22.99 9.523-6.097 6.095-9.522 14.367-9.522 22.989s3.425 16.893 9.522 22.989c6.097 6.098 14.367 9.523 22.99 9.523h254.207c8.622 0 16.893-3.425 22.989-9.523 6.098-6.095 9.523-14.367 9.523-22.989s-3.425-16.893-9.523-22.989c-6.095-6.098-14.367-9.523-22.989-9.523h-254.207zM249.594 488.655c-8.623 0-16.892 3.425-22.99 9.523-6.097 6.095-9.522 14.367-9.522 22.989s3.425 16.893 9.522 22.989c6.097 6.098 14.367 9.523 22.99 9.523h418.533c8.622 0 16.893-3.425 22.989-9.523 6.098-6.095 9.523-14.367 9.523-22.989s-3.425-16.893-9.523-22.989c-6.095-6.098-14.367-9.523-22.989-9.523h-418.533zM249.594 651.188c-8.623 0-16.892 3.425-22.99 9.523-6.097 6.095-9.522 14.367-9.522 22.989s3.425 16.893 9.522 22.99c6.097 6.097 14.367 9.522 22.99 9.522h418.533c8.622 0 16.893-3.425 22.989-9.522 6.098-6.096 9.523-14.367 9.523-22.99s-3.425-16.893-9.523-22.989c-6.095-6.098-14.367-9.523-22.989-9.523h-418.533z" />
<glyph unicode="&#xe906;" glyph-name="gear-alt" d="M247.166 395.543c0-0.003 0.002-0.007 0.002-0.007 0.634 0.638 0.592 0.601-0.002 0.007zM1001.303 537.081l-50.92 12.244c-11.073 48.333-30.143 94.265-56.798 136.972l25.805 43.324c7.031 11.804 5.127 26.862-4.57 36.558l-84.569 84.57c-9.697 9.666-24.723 11.6-36.56 4.57l-43.322-25.806c-42.708 26.656-88.641 45.726-136.973 56.798l-12.247 50.92c-3.338 13.328-15.319 22.704-29.085 22.704h-119.984c-13.769 0-25.747-9.374-29.088-22.704l-12.244-50.92c-48.333-11.072-94.266-30.142-136.974-56.798l-43.324 25.806c-11.804 7.032-26.862 5.126-36.558-4.57l-84.574-84.568c-9.696-9.696-11.6-24.752-4.57-36.558l25.806-43.324c-26.656-42.708-45.726-88.639-56.798-136.974l-50.92-12.244c-13.328-3.338-22.704-15.319-22.704-29.088v-119.981c0-13.769 9.374-25.777 22.732-29.088l50.92-12.244c7.382-32.027 18.492-62.799 32.76-92.31 22.030 22.118 132.673 133.235 140.625 141.178-0.392 2.021-4.678 40.441-4.792 47.927-2.552 152.855 120.566 274.465 269.807 274.465 150.264 0 270.086-121.162 269.519-270.874-0.645-138.451-103.98-256.32-248.309-267.099-6.243-0.481-34.471-4.646-73.817 3.113l-140.783-140.782c29.4-14.182 60.055-25.221 91.949-32.573l12.244-50.951c3.342-13.329 15.322-22.705 29.088-22.705h119.984c13.769 0 25.747 9.376 29.088 22.705l12.244 50.92c48.333 11.073 94.266 30.143 136.973 56.798l43.325-25.805c11.745-7.035 26.832-5.1 36.557 4.567l84.569 84.572c9.697 9.694 11.602 24.75 4.57 36.557l-25.805 43.325c26.685 42.708 45.725 88.641 56.798 137.003l50.889 12.213c13.36 3.311 22.733 15.319 22.733 29.088v119.981c0 13.766-9.373 25.75-22.699 29.088zM715.036 502.835c-2.635 10.329-10.609 18.452-20.893 21.268-10.278 2.819-21.258-0.119-28.795-7.653l-68.451-68.454c-23.398-23.398-61.433-23.398-84.835 0-23.375 23.375-23.375 61.454 0 84.832l68.482 68.482c7.533 7.537 10.445 18.536 7.625 28.81s-10.933 18.26-21.258 20.884c-126.572 32.166-240.475-50.281-261.365-164.132-6.708-37.499-3.72-74.844 8.552-109.237-17.068-17.070-280.695-280.691-287.781-287.781-35.182-35.185-35.182-92.419 0.556-128.159 35.404-33.56 89.626-34.97 127.043 0.556l287.784 287.784c46.083-16.449 97.481-16.114 147.779 1.635 90.631 31.98 154.060 139.304 125.555 251.166z" />
<glyph unicode="&#xe907;" glyph-name="gear" d="M962.905 590.237c-19.918 2.895-38.928 10.244-55.612 21.5-16.681 11.258-30.611 26.134-40.746 43.521-10.139 17.388-16.224 36.837-17.801 56.901-1.58 20.065 1.389 40.226 8.684 58.985 4.638 12.263 5.321 25.67 1.954 38.341s-10.614 23.971-20.725 32.315c-44.646 37.49-95.465 66.941-150.187 87.040-12.464 4.629-26.066 5.207-38.877 1.653-12.806-3.555-24.171-11.061-32.464-21.451-12.483-15.963-28.438-28.873-46.652-37.752-18.218-8.879-38.213-13.493-58.479-13.493-20.261 0-40.261 4.614-58.476 13.493-18.218 8.879-34.173 21.789-46.655 37.752-8.293 10.389-19.653 17.895-32.464 21.451-12.806 3.554-26.413 2.976-38.875-1.653-50.529-18.557-97.772-45.059-139.947-78.507-10.631-8.416-18.288-20.015-21.851-33.098s-2.843-26.962 2.053-39.606c7.876-19.254 11.131-40.086 9.502-60.826s-8.096-40.808-18.881-58.596c-10.786-17.789-25.59-32.801-43.227-43.835s-37.612-17.781-58.326-19.697c-13.449-1.439-26.079-7.158-36.034-16.314s-16.706-21.264-19.262-34.547c-6.356-31.461-9.557-63.476-9.557-95.573-0.047-26.869 2.123-53.7 6.485-80.211 2.172-13.708 8.798-26.32 18.854-35.881 10.057-9.565 22.985-15.549 36.783-17.027 21.169-1.985 41.555-9.015 59.45-20.496 17.895-11.485 32.78-27.085 43.408-45.501s16.69-39.107 17.68-60.348c0.989-21.241-3.124-42.408-11.995-61.729-5.805-12.573-7.245-26.718-4.092-40.2s10.721-25.524 21.5-34.211c44.378-36.81 94.705-65.786 148.822-85.677 6.921-2.395 14.18-3.663 21.503-3.753 10.041 0.019 19.93 2.45 28.84 7.081 8.91 4.635 16.575 11.337 22.361 19.543 12.167 17.722 28.473 32.21 47.509 42.205 19.033 9.995 40.219 15.19 61.717 15.139 20.831-0.028 41.365-4.919 59.973-14.282s34.773-22.938 47.205-39.649c8.27-11.118 19.988-19.188 33.322-22.957 13.338-3.764 27.54-3.015 40.406 2.133 49.484 19.915 95.55 47.44 136.534 81.581 10.294 8.512 17.629 20.066 20.941 33.010 3.312 12.94 2.434 26.601-2.509 39.009-8.028 19.006-11.527 39.618-10.224 60.211 1.302 20.589 7.377 40.597 17.738 58.436 10.361 17.843 24.724 33.034 41.963 44.369 17.238 11.34 36.876 18.514 57.363 20.963 13.283 1.834 25.637 7.853 35.273 17.184 9.635 9.327 16.048 21.478 18.315 34.699 5.481 28.469 8.453 57.368 8.875 86.355 0.007 30.579-2.851 61.089-8.531 91.138-2.305 12.924-8.625 24.795-18.062 33.926-9.437 9.129-21.509 15.054-34.504 16.93zM682.668 448.242c0-33.755-10.010-66.749-28.762-94.817s-45.407-49.94-76.591-62.86c-31.188-12.916-65.501-16.294-98.608-9.71s-63.516 22.841-87.386 46.706c-23.866 23.87-40.122 54.277-46.707 87.386s-3.205 67.42 9.712 98.605c12.918 31.188 34.79 57.843 62.858 76.595s61.061 28.762 94.817 28.762c45.263 0 88.673-17.98 120.68-49.987s49.987-75.418 49.987-120.68z" />
<glyph unicode="&#xe908;" glyph-name="heart" d="M943.666 797.823c-26.419 27.044-57.942 48.576-92.745 63.348-34.8 14.772-72.187 22.491-109.991 22.708-37.806 0.217-75.279-7.071-110.248-21.441s-66.738-35.539-93.464-62.277l-24.685-24.685-24.71 24.685c-53.595 53.588-126.283 83.691-202.075 83.687-75.789-0.005-148.473-30.117-202.061-83.712s-83.691-126.283-83.687-202.072c0.005-75.789 30.117-148.474 83.712-202.062l352.201-352.2c20.326-20.291 47.872-31.686 76.594-31.686 28.72 0 56.265 11.394 76.594 31.686l349.938 349.913c53.573 53.314 84.077 125.531 84.942 201.11 0.865 75.577-27.978 148.473-80.317 203zM285.794 823.764c29.645 0.081 59.010-5.721 86.397-17.069s52.25-28.017 73.15-49.042l24.71-24.71-39.34-39.365c-4.876-5.777-7.406-13.175-7.084-20.727 0.319-7.553 3.461-14.71 8.808-20.056 5.344-5.345 12.5-8.489 20.055-8.808 7.552-0.319 14.949 2.209 20.728 7.084l106.508 106.583c21.106 21.113 46.192 37.827 73.803 49.175 27.614 11.347 57.202 17.102 87.056 16.932s59.374-6.263 86.855-17.926c27.483-11.662 52.376-28.663 73.241-50.015 41.326-43.183 64.047-100.866 63.271-160.633-0.774-59.77-24.984-116.844-67.419-158.939l-349.938-349.988c-9.047-9.019-21.301-14.082-34.073-14.082-12.775 0-25.027 5.063-34.073 14.082l-352.252 352.276c-31.562 31.56-53.057 71.77-61.765 115.544-8.708 43.777-4.239 89.15 12.842 130.386s46.006 76.48 83.119 101.275c37.112 24.796 80.744 38.029 125.378 38.026h0.025z" />
<glyph unicode="&#xe909;" glyph-name="help-center" d="M136.268-63.999c-24.136 0.061-47.262 9.692-64.307 26.781-17.046 17.087-26.617 40.238-26.617 64.374v125.799c-0.076 41.765 15.221 82.096 42.974 113.306s66.022 51.114 107.508 55.92h0.973c51.365 5.735 99.426 28.171 136.809 63.859l2.33 2.202-2.227 2.278c-27.616 28.396-48.090 62.948-59.737 100.808l-0.666 2.227h-5.633c-36.025 0.046-70.561 14.38-96.035 39.852-25.473 25.474-39.805 60.011-39.853 96.035v0.461c0.093 35.842 14.306 70.204 39.559 95.641s59.513 39.895 95.355 40.246h2.561l0.563 2.433c12.848 54.578 43.757 103.215 87.711 138.025 43.957 34.81 98.38 53.751 154.451 53.751s110.497-18.941 154.451-53.751c43.957-34.81 74.864-83.447 87.711-138.025l0.563-2.433h2.561c17.873-0.064 35.555-3.648 52.043-10.546s31.453-16.976 44.046-29.659c12.593-12.683 22.564-27.721 29.344-44.257s10.237-34.244 10.173-52.117c-0.064-17.873-3.646-35.555-10.544-52.043-6.9-16.487-16.976-31.453-29.661-44.046-12.683-12.593-27.721-22.564-44.256-29.344s-34.244-10.237-52.117-10.173h-5.607l-0.666-2.227c-11.77-38.326-32.593-73.251-60.711-101.832l-2.253-2.304 2.33-2.227c37.801-35.542 86.131-57.84 137.705-63.527 41.722-4.517 80.293-24.32 108.279-55.591 27.984-31.271 43.401-71.797 43.278-113.761v-124.98c0-24.159-9.589-47.329-26.662-64.42s-40.231-26.709-64.389-26.735h-751.336zM407.684 335.752c-52.849-56.393-123.994-92.205-200.77-101.064h-1.024c-19.974-2.35-38.386-11.965-51.73-27.014s-20.686-34.477-20.63-54.59v-128.718h756.687v128.026c0.102 20.208-7.283 39.737-20.73 54.818-13.448 15.084-32.004 24.653-52.092 26.863-77.558 8.414-149.538 44.33-202.896 101.243l-1.51 1.613-2.022-0.87c-31.509-13.684-65.512-20.691-99.864-20.581s-68.31 7.336-99.73 21.221l-2.048 0.896-1.638-1.843zM511.923 872.002c-42.551-0.048-83.345-16.971-113.434-47.060s-47.012-70.883-47.060-113.434v-147.537c0.018-35.839 12.031-70.643 34.124-98.859 22.095-28.22 52.998-48.23 87.785-56.847 34.79-8.616 71.459-5.341 104.169 9.305 32.711 14.644 59.576 39.816 76.319 71.506l2.561 4.609h-141.085c-11.696 0-22.917 4.647-31.187 12.918s-12.918 19.491-12.918 31.187c0 11.696 4.647 22.914 12.918 31.187 8.271 8.271 19.491 12.918 31.187 12.918h157.216v129.588c0 2.022 0 4.020 0 6.017 0 1.382-0.179 2.561-0.205 3.815-2.569 40.766-20.558 79.026-50.317 107.009-29.756 27.983-69.047 43.59-109.896 43.653l-0.179 0.026zM259.507 676.942c-11.084-1.905-21.136-7.677-28.373-16.285-7.236-8.611-11.19-19.506-11.161-30.752v-0.384c-0.023-11.24 3.935-22.126 11.172-30.726s17.285-14.359 28.363-16.259l3.687-0.64v95.662l-3.687-0.614zM760.601 581.972l3.687 0.666c11.013 2.045 20.96 7.879 28.12 16.492s11.079 19.46 11.079 30.659-3.918 22.047-11.079 30.659c-7.159 8.611-17.107 14.447-28.12 16.492l-3.687 0.666v-95.636z" />
<glyph unicode="&#xe90a;" glyph-name="info" d="M874.040 810.040c-96.707 96.702-225.28 149.96-362.040 149.96s-265.334-53.258-362.040-149.96c-96.702-96.706-149.96-225.28-149.96-362.040s53.258-265.334 149.96-362.040c96.706-96.701 225.28-149.96 362.040-149.96s265.334 53.258 362.040 149.96c96.701 96.707 149.96 225.28 149.96 362.040s-53.258 265.334-149.96 362.040zM512 758c49.628 0 89.999-40.374 89.999-90s-40.371-90-89.999-90c-49.626 0-90 40.374-90 90s40.374 90 90 90zM640 157.998h-260v60.001h42v240.001h-40v60h219.999v-300.001h38.001v-60.001z" />
<glyph unicode="&#xe90b;" glyph-name="list-check" horiz-adv-x="983" d="M112.828 120.739v727.359h587.438v-610.859l111.923 92.445v574.366c0 30.895-25.035 55.951-55.93 55.951h-699.382c-30.895 0-55.929-25.055-55.929-55.951v-839.239c0-30.895 25.033-55.95 55.929-55.95h488.217l-79.089 111.88h-353.178zM973.285 358.463c-10.306 9.718-26.145 10.174-36.996 1.241l-256.615-212.081-171.011 102.599c-11.35 6.797-25.883 4.772-34.926-4.989-8.976-9.675-9.957-24.336-2.31-35.145l185.327-262.258c5.186-7.342 13.617-11.743 22.594-11.831 0.086 0 0.174 0 0.26 0 8.89 0 17.277 4.207 22.551 11.44l274.523 374.158c8.28 11.352 6.863 27.147-3.398 36.865zM574.417 764.171h-335.726c-30.895 0-55.928-25.055-55.928-55.95s25.033-55.95 55.928-55.95h335.704c30.895 0 55.907 25.055 55.907 55.95s-24.99 55.95-55.885 55.95zM574.417 596.341h-335.726c-30.895 0-55.928-25.055-55.928-55.95s25.033-55.95 55.928-55.95h335.704c30.895 0 55.907 25.033 55.907 55.95 0.066 30.895-24.99 55.95-55.885 55.95zM574.417 428.49h-335.726c-30.895 0-55.928-25.057-55.928-55.952s25.033-55.95 55.928-55.95h335.704c30.895 0 55.907 25.055 55.907 55.95 0.066 30.895-24.99 55.952-55.885 55.952z" />
<glyph unicode="&#xe90c;" glyph-name="mail" d="M597.577 332.612c-25.477-16.982-55.067-25.96-85.578-25.96-30.507 0-60.101 8.978-85.578 25.96l-419.604 279.747c-2.328 1.552-4.596 3.17-6.818 4.834v-458.395c0-52.556 42.65-94.265 94.266-94.265h835.463c52.556 0 94.269 42.652 94.269 94.265v458.397c-2.228-1.668-4.502-3.29-6.832-4.844l-419.59-279.739zM40.1 662.283l419.606-279.75c15.884-10.588 34.087-15.884 52.294-15.884 18.203 0 36.409 5.296 52.294 15.884l419.607 279.75c25.108 16.73 40.1 44.73 40.1 74.95 0 51.962-42.275 94.234-94.233 94.234h-835.533c-51.96-0.002-94.234-42.274-94.234-94.284 0-30.17 14.992-58.17 40.1-74.9z" />
<glyph unicode="&#xe90d;" glyph-name="pen" d="M100.324 219.811c-10.088 0-20.157 3.846-27.86 11.551-15.389 15.386-15.389 40.335 0 55.72l615.825 615.829c15.373 15.389 40.335 15.389 55.726 0 15.386-15.389 15.386-40.335 0-55.722l-615.829-615.825c-7.685-7.686-17.772-11.551-27.862-11.551zM39.448-63.994c-2.739 0-5.518 0.296-8.296 0.883-21.28 4.572-34.837 25.518-30.265 46.798l60.885 283.8c4.572 21.28 25.616 34.793 46.796 30.265 21.28-4.572 34.835-25.518 30.265-46.798l-60.885-283.8c-3.96-18.5-20.314-31.148-38.5-31.148zM323.188-3.098c-10.088 0-20.157 3.846-27.864 11.545-15.391 15.391-15.391 40.335 0 55.726l615.829 615.81c15.365 15.386 40.335 15.386 55.72 0 15.391-15.391 15.391-40.335 0-55.726l-615.803-615.81c-7.705-7.699-17.793-11.545-27.882-11.545zM39.398-63.983c-18.186 0-34.521 12.648-38.5 31.148-4.552 21.28 8.985 42.226 30.265 46.798l283.798 60.883c21.299 4.515 42.245-9.003 46.798-30.26 4.546-21.28-8.985-42.226-30.265-46.798l-283.798-60.883c-2.778-0.611-5.557-0.889-8.296-0.889zM827.552 501.246c-10.088 0-20.177 3.846-27.856 11.551l-222.911 222.911c-15.391 15.386-15.391 40.333 0 55.722 15.365 15.389 40.353 15.389 55.72 0l222.911-222.913c15.391-15.391 15.391-40.335 0-55.72-7.686-7.705-17.774-11.551-27.864-11.551zM939.056 612.698c-10.088 0-20.177 3.84-27.882 11.545-15.391 15.391-15.391 40.335 0 55.744 21.93 21.93 34.011 51.621 34.011 83.582 0 31.959-12.081 61.654-34.011 83.582-21.949 21.949-51.647 34.028-83.601 34.028-31.961 0-61.659-12.079-83.59-34.028-15.365-15.389-40.309-15.41-55.739 0-15.391 15.389-15.391 40.335 0 55.742 36.805 36.827 86.281 57.102 139.327 57.102 53.021 0 102.517-20.275 139.321-57.102 36.829-36.806 57.108-86.283 57.108-139.325 0-53.045-20.277-102.524-57.108-139.327-7.661-7.686-17.75-11.545-27.838-11.545z" />
<glyph unicode="&#xe90e;" glyph-name="server" d="M957.56 959.999h-651.12c-36.641 0-66.439-29.8-66.439-66.44v-167.119c0-36.641 29.798-66.439 66.439-66.439h651.12c36.638 0 66.439 29.798 66.439 66.439v167.119c0 36.64-29.8 66.44-66.439 66.44zM390.001 779.999c-16.56 0-30.001 13.44-30.001 30s13.441 30 30.001 30c16.56 0 29.999-13.44 29.999-30s-13.439-30-29.999-30zM873.999 779.999h-364.001c-16.558 0-29.999 13.44-29.999 30s13.441 30 29.999 30h364.001c16.56 0 29.999-13.44 29.999-30s-13.439-30-29.999-30zM957.56 235.999h-651.12c-36.641 0-66.439-29.798-66.439-66.439v-167.12c0-36.638 29.798-66.439 66.439-66.439h651.12c36.638 0 66.439 29.8 66.439 66.439v167.12c0 36.641-29.8 66.439-66.439 66.439zM390.001 56.002c-16.56 0-30.001 13.439-30.001 29.999s13.441 30.001 30.001 30.001c16.56 0 29.999-13.441 29.999-30.001s-13.439-29.999-29.999-29.999zM873.999 56.002h-364.001c-16.558 0-29.999 13.439-29.999 29.999s13.441 30.001 29.999 30.001h364.001c16.56 0 29.999-13.441 29.999-30.001s-13.439-29.999-29.999-29.999zM30.001 840.079c7.68 0 15.362 2.932 21.22 8.792l8.66 8.666v-169.539c0-16.568 13.432-29.999 30-29.999s30 13.431 30 29.999v169.543l8.662-8.668c11.71-11.716 30.708-11.722 42.426-0.014 11.72 11.712 11.726 30.708 0.014 42.428l-59.882 59.92c-11.178 11.606-31.266 11.602-42.44 0l-59.88-59.92c-11.712-11.72-11.706-30.714 0.014-42.428 5.858-5.854 13.532-8.78 21.206-8.78zM972.781 408.125l-8.659-8.665v169.54c0 16.568-13.433 29.999-30.001 29.999s-29.999-13.431-29.999-29.999v-169.54l-8.663 8.665c-11.708 11.717-30.708 11.723-42.424 0.014-11.721-11.713-11.727-30.708-0.014-42.428l59.879-59.92c11.231-11.571 31.113-11.698 42.441 0l59.879 59.92c11.71 11.721 11.706 30.714-0.014 42.428-11.717 11.715-30.712 11.704-42.424-0.014zM717.56 298.039c36.641 0 66.439 29.8 66.439 66.441v167.118c0 36.641-29.798 66.441-66.439 66.441h-651.119c-36.639 0-66.44-29.8-66.44-66.441v-167.118c0-36.641 29.8-66.441 66.44-66.441h651.119zM150.001 418.040c-16.56 0-30 13.421-30 30.001 0 16.558 13.44 29.999 30 29.999s30-13.441 30-29.999c0-16.581-13.44-30.001-30-30.001zM270.001 418.040c-16.56 0-29.999 13.441-29.999 30.001 0 16.558 13.439 29.999 29.999 29.999h363.998c16.56 0 30.001-13.441 30.001-29.999 0-16.56-13.441-30.001-30.001-30.001h-363.998z" />
<glyph unicode="&#xe90f;" glyph-name="swap" d="M886.15 201.848c-29.188 0-56.488 14.361-73.021 38.412l-43.364 63.076c-51.081-91.591-148.187-150.721-257.765-150.721-152.904 0-279.046 116.793-293.919 265.847h28.074c10.967 0 21.035 6.078 26.143 15.788 5.106 9.708 4.411 21.447-1.802 30.484l-108.308 157.54c-5.508 8.014-14.612 12.804-24.34 12.804-1.216 0-2.422-0.074-3.614-0.219-1.192-0.147-2.366-0.367-3.52-0.653-2.884-0.717-5.636-1.864-8.162-3.394-3.536-2.14-6.636-5.030-9.046-8.536l-108.308-157.54c-6.214-9.038-6.908-20.779-1.802-30.484 5.106-9.708 15.174-15.79 26.144-15.79h30.48c7.028-109.863 53.174-212.183 131.718-290.728 85.546-85.545 199.283-132.657 320.263-132.657s234.717 47.112 320.264 132.657c22.741 22.741 42.879 47.69 60.17 74.357-2.085-0.147-4.176-0.244-6.283-0.244zM534.502 477.541h-45.009c-8.532 0-15.473 6.939-15.473 15.471v22.505c0 8.53 6.941 15.471 15.473 15.471h45.009c8.532 0 15.473-6.941 15.473-15.471 0-16.312 13.226-29.536 29.538-29.536s29.538 13.226 29.538 29.536c0 38.732-29.696 70.65-67.518 74.207v15.813c0 16.314-13.226 29.538-29.538 29.538-16.314 0-29.538-13.226-29.538-29.538v-15.813c-37.82-3.557-67.518-35.475-67.518-74.207v-22.505c0-41.107 33.444-74.549 74.551-74.549h45.009c8.532 0 15.473-6.941 15.473-15.473v-22.505c0-8.53-6.943-15.473-15.473-15.473h-45.009c-8.532 0-15.473 6.941-15.473 15.471 0 16.314-13.226 29.538-29.538 29.538s-29.538-13.226-29.538-29.538c0-38.732 29.696-70.65 67.518-74.205v-15.813c0-16.314 13.226-29.538 29.538-29.538 16.314 0 29.538 13.226 29.538 29.538v15.815c37.818 3.555 67.518 35.473 67.518 74.205v22.505c-0.002 41.107-33.442 74.551-74.551 74.551zM1020.606 461.751c-5.108 9.71-15.174 15.788-26.145 15.788h-30.478c-7.029 109.863-53.174 212.183-131.719 290.728-85.543 85.544-199.283 132.656-320.26 132.656-120.979 0-234.721-47.112-320.264-132.658-22.742-22.742-42.88-47.69-60.17-74.355 2.082 0.147 4.174 0.244 6.28 0.244 29.19 0 56.488-14.361 73.022-38.412l43.364-63.076c51.081 91.591 148.187 150.718 257.765 150.718 152.904 0 279.046-116.791 293.919-265.845h-28.074c-10.967 0-21.035-6.078-26.143-15.788-5.106-9.71-4.411-21.449 1.802-30.487l108.308-157.54c1.378-2.003 2.98-3.805 4.76-5.382 5.341-4.727 12.286-7.422 19.583-7.422 9.726 0 18.831 4.79 24.34 12.804l108.306 157.538c6.216 9.044 6.908 20.783 1.802 30.489z" />
<glyph unicode="&#xe910;" glyph-name="wave" d="M961.765 510.25h-73.355l-51.941 101.647c-11.117 21.647-33.526 34.75-58.937 33.779-24.621-1.397-46.121-17.22-54.768-40.294l-101.323-270.264-145.854 430.985c-8.511 25.162-32.072 42.162-58.954 42.309-26.441 0-50.059-16.779-58.78-41.735l-111.956-320.853-19.382 33.441c-11.103 19.118-31.735 30.985-53.838 30.985h-110.427c-34.323 0-62.25-27.927-62.25-62.25 0-34.325 27.926-62.235 62.25-62.235h74.559l69.368-119.62c12.265-21.086 35.824-33.468 59.706-30.675 24.118 2.265 44.882 18.53 52.911 41.443l96.926 277.748 143.749-424.807c8.442-24.826 31.707-41.796 58.941-42.267 25.825 0 49.238 16.237 58.294 40.382l113.091 301.647 5.116-9.971c10.707-20.91 31.941-33.882 55.415-33.882h111.44c34.324 0 62.235 27.91 62.235 62.235s-27.91 62.25-62.235 62.25z" />
<glyph unicode="&#xe911;" glyph-name="plus" d="M932.571 539.429h-310.856c-10.099 0-18.286 8.187-18.286 18.286v310.856c0 50.491-40.937 91.429-91.429 91.429s-91.429-40.937-91.429-91.429v-310.856c0-10.099-8.187-18.286-18.286-18.286h-310.856c-50.491 0-91.429-40.937-91.429-91.429s40.937-91.429 91.429-91.429h310.856c10.099 0 18.286-8.187 18.286-18.286v-310.856c0-50.491 40.937-91.429 91.429-91.429s91.429 40.937 91.429 91.429v310.856c0 10.099 8.187 18.286 18.286 18.286h310.856c50.491 0 91.429 40.937 91.429 91.429s-40.937 91.429-91.429 91.429z" />
<glyph unicode="&#xe912;" glyph-name="minus" d="M932.571 539.429h-310.857c-14.514-0.001-10.099 0 0 0l-58.514-0.005c0 0-0.709 0-51.2 0s0 0-91.429 0c0 0-8.187 0.004-18.286 0.004h-310.857c-50.491 0-91.429-40.937-91.429-91.428s40.937-91.429 91.429-91.429h310.857c10.099 0-12.286 0-27.485 0h57.815c50.985 0 28.893 0 79.385 0s98 0 51.2 0h16.8c-32.399 0 31.616 0 41.715 0h310.857c50.491 0 91.429 40.937 91.429 91.429s-40.937 91.428-91.429 91.428z" />
<glyph unicode="&#xe913;" glyph-name="caret-right" d="M242.991 940.992c-12.668-12.658-18.997-27.663-18.997-45v-895.987c0-17.345 6.329-32.339 18.997-45.008 12.683-12.668 27.677-18.997 45.011-18.997 17.33 0 32.325 6.329 44.997 18.997l447.995 447.996c12.669 12.682 19.012 27.677 19.012 45.007s-6.343 32.339-19.012 44.997l-447.998 447.995c-12.669 12.655-27.663 19.008-44.997 19.008-17.33 0-32.325-6.354-45.008-19.008z" />
<glyph unicode="&#xe914;" glyph-name="refresh" d="M116.501 412.149c-6.252 54.197-1.044 106.524 13.135 154.882 47.112 160.721 194.909 278.912 370.213 280.994v105.059c0 5.839 7.296 8.965 12.089 5.418l216.165-158.843c3.547-2.713 3.547-8.13 0-10.632l-215.961-158.843c-5.004-3.547-12.089-0.415-12.089 5.418v104.855c-115.277-1.878-213.664-72.96-255.98-173.435-16.050-37.938-24.18-79.84-21.888-123.821 3.126-60.449 25.847-116.112 61.703-161.134 19.175-23.969 14.592-58.991-10.211-77.13-23.556-17.305-56.489-12.51-74.627 10.422-44.4 55.453-74.004 122.987-82.547 196.778zM740.612 613.933c36.064-44.821 58.784-100.685 61.703-161.134 2.292-44.192-6.047-86.093-21.888-123.821-42.318-100.475-140.705-171.766-255.98-173.435v104.855c0 5.839-7.296 8.965-12.089 5.418l-216.165-158.843c-3.547-2.713-3.547-8.13 0-10.632l215.961-158.843c5.004-3.547 12.089-0.415 12.089 5.418v105.059c175.313 1.878 323.312 120.071 370.213 280.994 14.176 48.359 19.175 100.685 13.135 154.882-8.34 73.794-37.938 141.336-82.336 196.778-18.341 22.932-51.071 27.726-74.627 10.422-24.601-18.138-29.184-53.153-10.009-77.13z" />
<glyph unicode="&#xe915;" glyph-name="copy" d="M659.005 780.91h-476.035c-44.668 0-80.947-36.279-80.947-80.947v-683.016c0-44.668 36.279-80.947 80.947-80.947h476.035c44.668 0 80.947 36.279 80.947 80.947v683.016c-0.21 44.668-36.489 80.947-80.947 80.947zM683.121 17.157c0-13.421-10.905-24.326-24.326-24.326h-476.035c-13.421 0-24.326 10.905-24.326 24.326v682.806c0 13.421 10.905 24.326 24.326 24.326h476.035c13.421 0 24.326-10.905 24.326-24.326v-682.806zM841.031 960h-476.035c-44.668 0-80.947-36.279-80.947-80.947 0-15.728 12.582-28.31 28.31-28.31s28.31 12.582 28.31 28.31c0 13.421 10.905 24.326 24.326 24.326h476.035c13.421 0 24.326-10.905 24.326-24.326v-683.016c0-13.421-10.905-24.326-24.326-24.326-15.728 0-28.31-12.582-28.31-28.31s12.582-28.31 28.31-28.31c44.668 0 80.947 36.279 80.947 80.947v683.016c0 44.668-36.279 80.947-80.947 80.947z" />
<glyph unicode="&#xe916;" glyph-name="copy-square" d="M731.427 777.144h-621.713c-60.594 0-109.714-49.121-109.714-109.714v-621.713c0-60.594 49.121-109.714 109.714-109.714h621.713c60.594 0 109.714 49.121 109.714 109.714v621.713c0 60.594-49.121 109.714-109.714 109.714zM767.999 45.714c0-20.199-16.374-36.572-36.572-36.572h-621.713c-20.199 0-36.572 16.374-36.572 36.572v621.715c0 20.199 16.374 36.572 36.572 36.572h621.713c20.199 0 36.572-16.374 36.572-36.572v-621.715zM914.286 960h-658.285c-60.594 0-109.714-49.121-109.714-109.714 0-20.199 16.374-36.572 36.572-36.572s36.57 16.374 36.57 36.572 16.374 36.572 36.572 36.572h658.285c20.199 0 36.572-16.374 36.572-36.572v-658.285c0-20.199-16.374-36.572-36.572-36.572s-36.572-16.374-36.572-36.572 16.374-36.572 36.572-36.572c60.594 0 109.714 49.121 109.714 109.714v658.287c0 60.594-49.121 109.714-109.714 109.714z" />
<glyph unicode="&#xe917;" glyph-name="wallet" d="M977.447 443.705v143.921c0 48.802-37.854 88.491-85.681 92.34l-133.656 233.451c-12.386 21.591-32.386 37.023-56.318 43.431-23.819 6.364-48.726 3.022-70.044-9.386l-458.181-266.745h-80.471c-51.34 0-93.090-41.748-93.090-93.090v-558.536c0-51.34 41.748-93.090 93.090-93.090h791.261c51.34 0 93.090 41.748 93.090 93.090v143.921c27.030 9.639 46.544 35.229 46.544 65.53v139.634c0 30.301-19.514 55.891-46.544 65.53zM837.682 680.717h-202.843l152.134 88.572 50.709-88.572zM763.849 809.68l-221.514-128.963h-91.881l290.421 169.088 22.974-40.125zM655.178 907.236c10.523 6.159 22.817 7.796 34.568 4.658 11.886-3.181 21.796-10.863 27.955-21.613l0.048-0.085-359.798-209.479h-91.877l389.103 226.519zM930.901 29.090c0-25.658-20.886-46.544-46.544-46.544h-791.261c-25.658 0-46.544 20.886-46.544 46.544v558.536c0 25.658 20.886 46.544 46.544 46.544h791.261c25.658 0 46.544-20.886 46.544-46.544v-139.634h-139.634c-76.999 0-139.634-62.635-139.634-139.634s62.635-139.634 139.634-139.634h139.634v-139.634zM977.447 238.541c0-12.84-10.431-23.273-23.273-23.273h-162.907c-51.34 0-93.090 41.748-93.090 93.090 0 51.34 41.748 93.090 93.090 93.090h162.907c12.84 0 23.273-10.431 23.273-23.273v-139.634zM791.267 354.902c-25.658 0-46.544-20.886-46.544-46.544s20.886-46.544 46.544-46.544c25.658 0 46.544 20.886 46.544 46.544 0.002 25.658-20.884 46.544-46.544 46.544z" />
<glyph unicode="&#xe918;" glyph-name="github-alt" horiz-adv-x="951" d="M365.714 256c0-41.714-21.714-109.714-73.143-109.714s-73.143 68-73.143 109.714 21.714 109.714 73.143 109.714 73.143-68 73.143-109.714zM731.429 256c0-41.714-21.714-109.714-73.143-109.714s-73.143 68-73.143 109.714 21.714 109.714 73.143 109.714 73.143-68 73.143-109.714zM822.857 256c0 87.429-53.143 164.571-146.286 164.571-37.714 0-73.714-6.857-111.429-12-29.714-4.571-59.429-6.286-89.714-6.286s-60 1.714-89.714 6.286c-37.143 5.143-73.714 12-111.429 12-93.143 0-146.286-77.143-146.286-164.571 0-174.857 160-201.714 299.429-201.714h96c139.429 0 299.429 26.857 299.429 201.714zM950.857 356.571c0-63.429-6.286-130.857-34.857-189.143-75.429-152.571-282.857-167.429-431.429-167.429-150.857 0-370.857 13.143-449.143 167.429-29.143 57.714-35.429 125.714-35.429 189.143 0 83.429 22.857 162.286 77.714 226.286-10.286 31.429-15.429 64.571-15.429 97.143 0 42.857 9.714 85.714 29.143 124.571 90.286 0 148-39.429 216.571-93.143 57.714 13.714 117.143 20 176.571 20 53.714 0 108-5.714 160-18.286 68 53.143 125.714 91.429 214.857 91.429 19.429-38.857 29.143-81.714 29.143-124.571 0-32.571-5.143-65.143-15.429-96 54.857-64.571 77.714-144 77.714-227.429z" />
<glyph unicode="&#xe919;" glyph-name="youtube, brand, social" d="M1013.8 652.8c0 0-10 70.6-40.8 101.6-39 40.8-82.6 41-102.6 43.4-143.2 10.4-358.2 10.4-358.2 10.4h-0.4c0 0-215 0-358.2-10.4-20-2.4-63.6-2.6-102.6-43.4-30.8-31-40.6-101.6-40.6-101.6s-10.2-82.8-10.2-165.8v-77.6c0-82.8 10.2-165.8 10.2-165.8s10-70.6 40.6-101.6c39-40.8 90.2-39.4 113-43.8 82-7.8 348.2-10.2 348.2-10.2s215.2 0.4 358.4 10.6c20 2.4 63.6 2.6 102.6 43.4 30.8 31 40.8 101.6 40.8 101.6s10.2 82.8 10.2 165.8v77.6c-0.2 82.8-10.4 165.8-10.4 165.8zM406.2 315.2v287.8l276.6-144.4-276.6-143.4z" />
<glyph unicode="&#xe91a;" glyph-name="twitter, brand1, tweet, social1" d="M1024 733.6c-37.6-16.8-78.2-28-120.6-33 43.4 26 76.6 67.2 92.4 116.2-40.6-24-85.6-41.6-133.4-51-38.4 40.8-93 66.2-153.4 66.2-116 0-210-94-210-210 0-16.4 1.8-32.4 5.4-47.8-174.6 8.8-329.4 92.4-433 219.6-18-31-28.4-67.2-28.4-105.6 0-72.8 37-137.2 93.4-174.8-34.4 1-66.8 10.6-95.2 26.2 0-0.8 0-1.8 0-2.6 0-101.8 72.4-186.8 168.6-206-17.6-4.8-36.2-7.4-55.4-7.4-13.6 0-26.6 1.4-39.6 3.8 26.8-83.4 104.4-144.2 196.2-146-72-56.4-162.4-90-261-90-17 0-33.6 1-50.2 3 93.2-59.8 203.6-94.4 322.2-94.4 386.4 0 597.8 320.2 597.8 597.8 0 9.2-0.2 18.2-0.6 27.2 41 29.4 76.6 66.4 104.8 108.6z" />
<glyph unicode="&#xe91b;" glyph-name="facebook" d="M608 768h160v192h-160c-123.514 0-224-100.486-224-224v-96h-128v-192h128v-512h192v512h160l32 192h-192v96c0 17.346 14.654 32 32 32z" />
<glyph unicode="&#xe91c;" glyph-name="wordpress" d="M128 448.008c0-148.026 88.322-275.968 216.43-336.578l-183.178 488.784c-21.308-46.508-33.252-97.982-33.252-152.206zM771.228 466.872c0 46.234-17.054 78.236-31.654 103.142-19.458 30.82-37.72 56.894-37.72 87.716 0 34.374 26.766 66.376 64.486 66.376 1.704 0 3.32-0.204 4.976-0.302-68.316 60.97-159.34 98.196-259.308 98.196-134.16 0-252.186-67.046-320.844-168.568 9.010-0.282 17.506-0.454 24.712-0.454 40.154 0 102.34 4.752 102.34 4.752 20.69 1.182 23.132-28.434 2.458-30.822 0 0-20.81-2.368-43.952-3.55l139.834-405.106 84.044 245.456-59.822 159.65c-20.688 1.184-40.278 3.55-40.278 3.55-20.702 1.192-18.272 32.002 2.438 30.822 0 0 63.4-4.752 101.134-4.752 40.146 0 102.35 4.752 102.35 4.752 20.702 1.182 23.14-28.434 2.446-30.822 0 0-20.834-2.372-43.948-3.55l138.78-402.018 38.312 124.632c16.58 51.75 29.216 88.9 29.216 120.9zM518.742 415.296l-115.226-326.058c34.416-9.858 70.794-15.238 108.488-15.238 44.716 0 87.604 7.518 127.518 21.2-1.018 1.602-1.974 3.304-2.75 5.154l-118.030 314.942zM848.962 627.428c1.652-11.91 2.588-24.686 2.588-38.458 0-37.93-7.292-80.596-29.202-133.95l-117.286-330.272c114.162 64.828 190.938 185.288 190.938 323.258 0 65.030-17.060 126.16-47.038 179.422zM512 960c-282.77 0-512-229.23-512-512s229.23-512 512-512 512 229.23 512 512-229.23 512-512 512zM512 0c-247.424 0-448 200.576-448 448s200.576 448 448 448 448-200.576 448-448-200.576-448-448-448z" />
<glyph unicode="&#xe91d;" glyph-name="logo" horiz-adv-x="895" d="M600.276-64h-400.184v23.54h400.184c145.949 0 263.651 118.878 263.651 263.651 0 111.816-65.913 188.322-122.409 220.101l11.77 20.009c62.382-34.133 134.179-117.701 134.179-240.11 0-157.72-129.471-287.191-287.191-287.191zM183.614-64c-23.54 0-48.257 4.708-71.798 14.124-68.267 29.425-111.816 94.161-111.816 169.49v657.949c0 100.046 82.391 182.437 182.437 182.437h428.432c101.223 0 182.437-82.391 182.437-182.437v-234.225c0-48.257-20.009-95.338-54.143-129.471l-428.432-423.724c-35.31-36.487-80.037-54.143-127.117-54.143zM182.437 936.46c-87.099 0-158.897-71.798-158.897-158.897v-657.949c0-65.913 37.664-121.232 97.692-147.126 60.028-24.717 127.117-11.77 173.021 34.133l428.432 423.724c29.425 29.425 47.080 70.621 47.080 112.993v234.225c0 87.099-70.621 158.897-158.897 158.897h-428.432zM793.306 582.179h-336.625c-57.674 0-103.577 47.080-103.577 103.577s47.080 103.577 103.577 103.577h336.625v-207.154zM456.68 765.793c-44.726 0-80.037-36.487-80.037-80.037s36.487-80.037 80.037-80.037h313.085v160.074h-313.085zM466.097 638.676c-28.248 0-50.611 22.363-50.611 50.611s22.363 50.611 50.611 50.611c28.248 0 50.611-22.363 50.611-50.611s-22.363-50.611-50.611-50.611zM466.097 716.359c-15.301 0-27.071-11.77-27.071-27.071s11.77-27.071 27.071-27.071c15.301 0 27.071 11.77 27.071 27.071 0 14.124-11.77 27.071-27.071 27.071z" />
<glyph unicode="&#xe91e;" glyph-name="license" horiz-adv-x="614" d="M102.4 298.504v-311.292c0.050-10.105 3.092-19.972 8.741-28.357 5.649-8.38 13.653-14.905 23.003-18.747 9.324-3.92 19.6-4.989 29.533-3.076s19.075 6.726 26.275 13.828l117.246 117.76 117.247-117.76c4.784-4.743 10.457-8.499 16.695-11.047s12.919-3.838 19.657-3.801c6.713-0.172 13.378 1.233 19.456 4.096 9.347 3.842 17.351 10.367 23.003 18.747 5.648 8.385 8.688 18.252 8.741 28.357v311.292c-62.181-36.2-132.848-55.271-204.799-55.271s-142.617 19.071-204.797 55.271v0zM307.196 345.608c169.66 0 307.196 137.535 307.196 307.196s-137.535 307.196-307.196 307.196c-169.66 0-307.196-137.536-307.196-307.196s137.536-307.196 307.196-307.196z" />
<glyph unicode="&#xe91f;" glyph-name="left-arrow-lite" horiz-adv-x="1170" d="M104.777 415.659c-8.235 8.296-13.325 19.724-13.325 32.341s5.090 24.045 13.328 32.344l-0.003-0.003 400.642 401.663c6.521 7.869 10.478 18.070 10.478 29.194 0 25.355-20.555 45.91-45.91 45.91-11.15 0-21.372-3.975-29.325-10.585l0.075 0.061-400.591-401.612c-24.755-24.827-40.062-59.087-40.062-96.921s15.307-72.095 40.065-96.925l400.588-401.71c7.905-6.631 18.189-10.659 29.413-10.659 25.355 0 45.91 20.555 45.91 45.91 0 11.186-4.001 21.438-10.649 29.403l0.059-0.073zM1124.543 493.655h-829.749c-23.426-2.282-41.586-21.873-41.586-45.706s18.16-43.424 41.398-45.691l0.188-0.015h829.749c23.426 2.282 41.586 21.873 41.586 45.706s-18.16 43.424-41.398 45.691l-0.188 0.015z" />
<glyph unicode="&#xe920;" glyph-name="imported" d="M512 584.533c0 20.48-13.653 34.133-34.133 34.133s-34.133-13.653-34.133-34.133v-170.667c0-3.413 0-10.24 3.413-13.653 3.413-6.827 10.24-13.653 17.067-17.067 3.413-3.413 10.24-3.413 13.653-3.413h170.667c20.48 0 34.133 13.653 34.133 34.133s-13.653 34.133-34.133 34.133h-88.747l283.307 283.307c13.653 13.653 13.653 34.133 0 47.787s-34.133 13.653-47.787 0l-283.307-283.307v88.747zM853.333 448c-20.48 0-34.133-13.653-34.133-34.133v-221.867c0-27.307-23.893-51.2-51.2-51.2h-512c-27.307 0-51.2 23.893-51.2 51.2v512c0 27.307 23.893 51.2 51.2 51.2h221.867c20.48 0 34.133 13.653 34.133 34.133s-13.653 34.133-34.133 34.133h-221.867c-64.853 0-119.467-54.613-119.467-119.467v-512c0-64.853 54.613-119.467 119.467-119.467h512c64.853 0 119.467 54.613 119.467 119.467v221.867c0 20.48-13.653 34.133-34.133 34.133z" />
<glyph unicode="&#xe921;" glyph-name="view" horiz-adv-x="1080" d="M540 650.6c-111.8 0-202.6-90.8-202.6-202.6s90.8-202.6 202.6-202.6c111.8 0 202.6 90.8 202.6 202.6s-90.8 202.6-202.6 202.6zM540 303.4c-79.8 0-144.6 64.8-144.6 144.6s64.8 144.6 144.6 144.6 144.6-64.8 144.6-144.6-64.8-144.6-144.6-144.6zM1044.2 497.6c-41.4 46.8-108.4 114.8-194 172.4-105.6 71.2-210 107.4-310.2 107.4-100.4 0-204.8-36.2-310.2-107.6-85.2-57.6-152.6-125.6-194-172.4-25-28.4-25-71 0-99.4 41.4-46.8 108.4-114.8 194-172.4 105.6-71.2 210-107.4 310.2-107.4 100.4 0 204.8 36.2 310.2 107.6 85.2 57.6 152.6 125.6 194 172.4 25 28.4 25 71.2 0 99.4zM540 176.4c-208.2 0-391.6 182-460.8 260.2-5.8 6.4-5.8 16.2 0 22.6 69.2 78.4 252.6 260.4 460.8 260.4s391.6-182 460.8-260.2c5.8-6.4 5.8-16.2 0-22.6v0c-207.2-235-391.2-260.4-460.8-260.4z" />
<glyph unicode="&#xe922;" glyph-name="envelope" horiz-adv-x="1331" d="M0 960v-982.001h1289.19v982.001h-1289.19zM1154.022 884.462l-509.43-465.041-509.427 465.041h1018.856zM1213.65 53.54h-1138.111v783.073l569.054-519.47 569.057 519.47v-783.073z" />
<glyph unicode="&#xe923;" glyph-name="logo-2" d="M977.455 443.699v143.922c0 48.803-37.853 88.492-85.681 92.341l-133.66 233.454c-12.386 21.591-32.386 37.023-56.32 43.431-23.816 6.364-48.727 3.022-70.042-9.386l-458.19-266.749h-80.472c-51.34 0-93.091-41.749-93.091-93.091v-558.544c0-51.342 41.749-93.093 93.091-93.093h791.274c51.338 0 93.089 41.752 93.089 93.093v143.923c27.030 9.637 46.545 35.23 46.545 65.528v139.638c0 30.303-19.515 55.891-46.545 65.532zM837.687 680.713h-202.843l152.135 88.573 50.708-88.573zM763.853 809.678l-221.519-128.965h-91.88l290.426 169.090 22.973-40.125zM655.183 907.235c10.524 6.159 22.816 7.795 34.568 4.658 11.886-3.181 21.795-10.863 27.955-21.613l0.047-0.085-359.802-209.482h-91.878l389.111 226.523zM930.911 29.078c0-25.659-20.89-46.545-46.545-46.545h-791.274c-25.658 0-46.545 20.886-46.545 46.545v558.544c0 25.658 20.887 46.544 46.545 46.544h791.274c25.655 0 46.545-20.886 46.545-46.544v-139.637h-139.638c-77.001 0-139.634-62.633-139.634-139.634s62.633-139.638 139.634-139.638h139.638v-139.634zM977.455 238.529c0-12.839-10.433-23.272-23.272-23.272h-162.911c-51.342 0-93.093 41.748-93.093 93.093 0 51.338 41.752 93.089 93.093 93.089h162.911c12.839 0 23.272-10.429 23.272-23.272v-139.638zM791.237 354.903c-25.659 0-46.545-20.886-46.545-46.545 0-25.655 20.886-46.545 46.545-46.545s46.545 20.89 46.545 46.545c0.004 25.659-20.886 46.545-46.545 46.545z" />
<glyph unicode="&#xe924;" glyph-name="user" d="M0-17.453c0-25.706 20.818-46.547 46.545-46.547s46.546 20.84 46.546 46.547c0 164.25 94.557 309.662 241.946 378.425 51.009-33.149 111.689-52.609 176.918-52.609 65.475 0 126.39 19.591 177.517 52.974 43.999-20.771 84.775-48.718 118.71-82.633 79.135-79.159 122.728-184.34 122.728-296.157 0-25.706 20.816-46.547 46.543-46.547s46.547 20.84 46.547 46.547c0 136.679-53.273 265.224-150 361.976-32.367 32.383-69.984 60.15-110.342 83.042 46.277 56.271 74.113 128.247 74.113 206.617 0 179.659-146.182 325.818-325.816 325.818-179.637 0-325.819-146.159-325.819-325.818 0-78.179 27.725-149.981 73.796-206.191-159.781-89.96-259.932-258.044-259.932-445.444zM511.955 866.909c128.319 0 232.727-104.409 232.727-232.727s-104.407-232.729-232.727-232.729c-128.319 0-232.728 104.411-232.728 232.729s104.409 232.727 232.728 232.727z" />
<glyph unicode="&#xe925;" glyph-name="delete" d="M652.482 589.438c-13.231 0-23.954-10.723-23.954-23.953v-452.716c0-13.22 10.723-23.953 23.954-23.953 13.229 0 23.953 10.732 23.953 23.953v452.716c0 13.229-10.723 23.953-23.953 23.953zM369.835 589.438c-13.231 0-23.954-10.723-23.954-23.953v-452.716c0-13.22 10.723-23.953 23.954-23.953 13.229 0 23.953 10.732 23.953 23.953v452.716c0 13.229-10.723 23.953-23.953 23.953zM163.838 655.506v-590.155c0-34.882 12.791-67.64 35.134-91.143 22.241-23.57 53.192-36.95 85.587-37.006h453.201c32.402 0.056 63.353 13.436 85.585 37.006 22.345 23.503 35.134 56.261 35.134 91.143v590.155c44.416 11.789 73.198 54.7 67.257 100.275-5.952 45.568-44.772 79.654-90.732 79.664h-122.639v29.941c0.14 25.179-9.814 49.357-27.639 67.144-17.825 17.778-42.040 27.677-67.219 27.471h-212.696c-25.18 0.206-49.395-9.694-67.219-27.471-17.825-17.787-27.779-41.965-27.639-67.144v-29.941h-122.639c-45.959-0.009-84.78-34.096-90.731-79.664-5.942-45.575 22.84-88.486 67.256-100.275zM737.76-14.893h-453.201c-40.955 0-72.815 35.181-72.815 80.244v588.049h598.83v-588.049c0-45.063-31.861-80.244-72.814-80.244zM357.857 865.385c-0.158 12.472 4.745 24.477 13.596 33.282 8.842 8.805 20.875 13.642 33.357 13.427h212.696c12.482 0.215 24.515-4.622 33.357-13.427 8.851-8.795 13.754-20.809 13.596-33.282v-29.941h-306.602v29.941zM187.313 787.538h647.691c23.812 0 43.116-19.302 43.116-43.115s-19.303-43.116-43.116-43.116h-647.691c-23.812 0-43.115 19.302-43.115 43.116 0 23.812 19.303 43.115 43.115 43.115zM511.159 589.438c-13.231 0-23.954-10.723-23.954-23.953v-452.716c0-13.22 10.723-23.953 23.954-23.953 13.229 0 23.953 10.732 23.953 23.953v452.716c0 13.229-10.723 23.953-23.953 23.953z" />
</font>
</defs>
</svg>
